digitalks
» » The 3 Sounds - Out of This World

The 3 Sounds - Out of This World flac

The 3 Sounds - Out of This World flac
Title:
Out of This World
Performer:
The 3 Sounds
Duration:
41:05
FLAC album size:
1112 mb
MP3 album size:
1848 mb
Other formats:
MIDI AC3 XM ADX AAC VOX
Genre:
Rating:
4.8

Out of This World is an album by jazz group The Three Sounds featuring performances recorded in 1962 and released on the Blue Note label.

Elegant Refined Laid-Back/Mellow Sophisticated Stylish. It's the loose, flexible groove that's the key. Simpkins and Dowdy keep things on track, while Gene Harris plays - he can be nimble, he can pound, but he keeps the music flowing at a nice, easy pace. He has a good sense of the groove, and he stays within the groove even as he plays a lot of notes; it's truly an individual style.

Out Of This World ‎(LP, Album, Mono). Out Of This World ‎(CD, Album, Ltd, RE, RM, Pap). TOCJ-4197, BNST-84197. Out Of This World ‎(CD, Album, RE).

Out of This World is an album by jazz group The Three Sounds featuring performances recorded in 1962 and released on the Blue Note label. Girl of My Dreams" - 3:00.

Europe - Out Of This World (1988).

TITLE "Out of the Past" PERFORMER "The Three Sounds" INDEX 01 23:22:57 TRACK 07 AUDIO TITLE "Just in Time" PERFORMER "The Three Sounds" INDEX 01 29:52:44 TRACK 08 AUDIO TITLE "I'll Be Around" PERFORMER "The Three Sounds" INDEX 01 36:13:63 TRACK 09 AUDIO TITLE "My Silent Love" PERFORMER "The Three Sounds" INDEX 01 39:53:48. Whims of Chamberland Anita O'Day & The Three Sounds (1962) 05. When the World Was Young 06. Someday My Prince Will Come 07. All Too Soon 08.

Out of This World is the second album for the Blue Note label by The 3 Sounds. The album is a mix of jazz standards and original compositions by Gene Harris. It’s the loose, flexible groove that’s the key. Tracklist: 01 – Girl Of My Dreams 02 – Out Of The Past 03 – Just In Time 04 – I’ll Be Around 05 – My Silent Love 06 – Sanctified Sue 07 – Out Of This World 08 – You Make Me Feel So Young. Produced by Alfred Lion. Recorded at Rudy Van Gelder Studio, Englewood Cliffs, New Jersey on February 4 (tracks 1, 3 & 7), March 7 (tracks 4 & 8-10), and March 8 (tracks 2, 5 & 6), 1962.

Track List

Title/Composer Performer Time
1 Girl of My Dreams Sunny Clapp The 3 Sounds 3:00
2 Out of the Past Benny Golson The 3 Sounds 6:31
3 Just In Time Betty Comden / Adolph Green / Jule Styne The 3 Sounds 6:21
4 I'll Be Around Alec Wilder The 3 Sounds 3:40
5 My Silent Love Edward Heyman / Dana Suesse The 3 Sounds 6:59
6 Sanctified Sue Gene Harris The 3 Sounds 3:36
7 Out of This World Harold Arlen / Johnny Mercer The 3 Sounds 6:36
8 You Make Me Feel So Young Mack Gordon / Josef Myrow The 3 Sounds 4:22

Credits

Harold Arlen - Composer
Sunny Clapp - Composer
Betty Comden - Composer
Benny Golson - Composer
Mack Gordon - Composer
Adolph Green - Composer
Gene Harris - Composer
Edward Heyman - Composer
Johnny Mercer - Composer
Josef Myrow - Composer
Jule Styne - Composer
Dana Suesse - Composer
The 3 Sounds - Primary Artist
Alec Wilder - Composer