digitalks
» » Scott Hamilton - Major League

Scott Hamilton - Major League flac

Scott Hamilton - Major League flac
Title:
Major League
Performer:
Scott Hamilton
Style:
Mainstream Jazz,Jazz Instrument,Saxophone Jazz
Duration:
40:26
Released:
May, 1986
FLAC album size:
1192 mb
MP3 album size:
1536 mb
Other formats:
MP2 TTA MIDI DTS APE XM
Genre:
Rating:
4.3

Artists Scott Hamilton Major League. Major League Scott Hamilton. This album has an average beat per minute of BPM (slowest/fastest tempos:, BPM). See its BPM profile at the bottom of the page. Tracklist Major League. Album starts at BPM, ends at BPM (+0), with tempos within the -BPM range. Try refreshing the page if dots are missing). Recent albums by Scott Hamilton.

Scott Hamilton (born September 12, 1954) is an American jazz tenor saxophonist associated with swing and mainstream jazz. Hamilton started playing tenor saxophone at the age of sixteen. In 1976 he moved to New York City and played with Benny Goodman at the end of the decade. Most often he has been the leader of bands. He has worked with Ruby Braff and Warren Vache.

Scott Hamilton (born 12 September 1954) is a jazz tenor saxophonist, associated with swing (music) and mainstream jazz.

Scott Hamilton is a multi award-winning media/marketing specialist, with 11 years experience in news, communications an. .OUR MAJOR MAMA caused a massive boilover in last night’s Western Australian Oaks at Gloucester Park. 40 on the Tote nationaltrotguide.

Dave McKenna/Scott Hamilton/Jake Hanna" INDEX 01 05:02:47 TRACK 03 AUDIO TITLE "Long Ago and Far Away" PERFORMER "Dave McKenna/Scott Hamilton/Jake Hanna" INDEX 01 08:56:32 TRACK 04 AUDIO TITLE "Drum Boogie" PERFORMER "Dave McKenna/Scott Hamilton/Jake Hanna" INDEX 01 12:49:40 TRACK 05 AUDIO TITLE "I Love You, Samantha" PERFORMER "Dave McKenna/Scott  . This bassless trio recorded No Bass Hit in 1979, then returned for an encore with Major League in 1986.

Track List

Title/Composer Performer Time
1 Swingin' at the Copper Rail Dave McKenna Scott Hamilton 3:28
2 A Pretty Girl Is Like a Melody Irving Berlin Scott Hamilton 5:06
3 Cocktails for Two Sam Coslow / Arthur Johnston Scott Hamilton 4:20
4 I'm Through With Love Gus Kahn / Fud Livingston / Matty Malneck Scott Hamilton 4:20
5 Linger Awhile Harry Owens / Vincent Rose Scott Hamilton 4:13
6 September in the Rain Al Dubin / Harry Warren Scott Hamilton 5:01
7 This Is All I Ask Gordon Jenkins Scott Hamilton 5:26
8 It All Depends on You Lew Brown / Buddy DeSylva / Ray Henderson Scott Hamilton 4:25
9 April in Paris Vernon Duke / E.Y. "Yip" Harburg Scott Hamilton 4:38

Credits

Irving Berlin - Composer
Lew Brown - Composer
Sam Coslow - Composer
Buddy DeSylva - Composer
Al Dubin - Composer
Vernon Duke - Composer
Ken Franckling - Liner Notes
Scott Hamilton - Performer, Primary Artist, Sax (Tenor)
Jake Hanna - Drums, Performer
E.Y. "Yip" Harburg - Composer
Ray Henderson - Composer
Gordon Jenkins - Composer
Arthur Johnston - Composer
Gus Kahn - Composer
Fud Livingston - Composer
Matty Malneck - Composer
Dave McKenna - Composer, Performer, Piano
Steve McKenna - Producer
Harry Owens - Composer
Vincent Rose - Composer
Harry Warren - Composer