digitalks
» » Steve Khan - Modern Times

Steve Khan - Modern Times flac

Steve Khan - Modern Times flac
Title:
Modern Times
Performer:
Steve Khan
Duration:
45:26
FLAC album size:
1687 mb
MP3 album size:
1927 mb
Other formats:
DTS FLAC MIDI DXD AC3 MMF
Genre:
Rating:
4.8

Steve Khan (born April 28, 1947) is an American jazz guitarist. According to Steve Khan, his father, lyricist Sammy Cahn, "loved to hear of any and all versions of his songs". Thus Khan grew up in a house with music. He took piano lessons as a child and played drums for the surf rock band the Chantays. The band's guitarist exposed him to the albums Tough Talk by the Crusaders and Movin' Wes by Wes Montgomery. In his late teens he quit the drums and started playing guitar.

Modern Times - Steve Khan. Songs: 5. Artist: Steve Khan. Songs: Steve Khan - Blades 15:31. Steve Khan - Blades 10:46. Steve Khan - The Blue Shadow (For Folon) 11:46. Steve Khan - Penguin Village 11:49. Steve Khan - Modern Times 11:02.

Request an album send to friend. Steve Khan - Headline.

Steve Khan (born April 28, 1947) is an American jazz guitarist born in Los Angeles, California. The son of lyricist Sammy Cahn, Steve Khan is best-known for his fusion records, he originally played piano and drums. In 1969, Khan moved to New York and worked steadily on jazz, pop, and R&B recordings.

TITLE "Modern Times" PERFORMER "Steve Khan" REM GENRE "Jazz" REM DATE 1985 REM DISCNUMBER 1 REM TOTALDISCS 1 REM DISCID 2D0AA504 FILE "01 Steve Khan - Blades (For Wayne Gretsky). wav" WAVE TRACK 01 AUDIO TITLE "Blades (For Wayne Gretsky)" INDEX 01 00:00:00 FILE "02 Steve Khan - The Blue Shadow (For Folon). wav" WAVE TRACK 02. AUDIO TITLE "The Blue Shadow (For Folon)" INDEX 01 00:00:00 FILE "03 Steve Khan - Penguin Village. wav" WAVE TRACK 03 AUDIO TITLE "Penguin Village" INDEX 01 00:00:00 FILE "04 Steve.

Album · 1991 · 9 Songs. Listen on Apple Music. The Suitcase (Live in Koln '94).

Steve Khan download free and listen online. Steve Khan Modern Times. Steve Khan The Big Ones. Steve Khan Auxiliary Police.

Only 9 left in stock (more on the way). Steve Khan's abilities are more than well-represented here. His smooth, articulate tone perfectly match his seamless articulation, and gives a bit of 'traditional' vibe to his no-so-traditional harmonic explorations. He wrote the majority of the material on the album as well. Anthony Jackson shines bright on this recording. His contrabass guitar has recieved equal prominence in the mix, and rightfully so - he accompanies Khan's guitar with everything from walking lines and latin grooves to chords and lightning fast runs.

Track List

Title/Composer Performer Time
1 Blades [For Wayne Shorter] Steve Khan Steve Khan 10:47
2 The Blue Shadow [For Folon] Steve Khan Steve Khan 11:46
3 Penguin Village Steve Khan Steve Khan 11:50
4 Modern Times Manolo Badrena / Anthony Jackson / Steve Jordan / Steve Khan Steve Khan 11:03

Credits

Manolo Badrena - Composer
Anthony Jackson - Composer
Steve Jordan - Composer
Steve Khan - Composer, Primary Artist